ПолиграфияИнфо група dotbrain.eu ПринтГайд магазин TheDigitalPrint.info ПолиграфияИнфо ПринтСток БГОферта ПринтИдея
Error: Embedded data could not be displayed.



Въпроси и отговори
Как може да бъде намален ефектът моаре при сканиране на вече отпечатани илюстрации?...
Как се сменя името на шрифт, така че, не само файловите браузъри, но и софтуерът за...
Как да пишем формули в Quark?
Предпечат
Работа с допълнителни цветове във Photoshop
Намаляване на лимита на намастиляването в CMYK изображения с Photoshop...
Как да подготвим снимки от екрана за печат


Часовете са според зоната UTC + 2 часа




Напиши нова тема Отговори на тема  [ 3 мнения ] 
Автор Съобщение
 Заглавие: Проблем с импорт на аудио файл в Адобе Флаш
МнениеПубликувано на: 22 Ное 2010, 00:06 
Срамежлив

Регистриран на: 30 Сеп 2010, 15:30
Мнения: 5
Проблем при импорт на mp3 или wav в Адобе Флаш. Някой от аудио файловете ги импортира без проблем, но някой не иска, пробвах какво ли не... конвертирам "проблемната" mp3 в wav (доколкото знам флаша подържа само mp3 и wav) или wma после wma пак го обръщам в mp3... най-ме е яд че някой mp3 или wav си ги импортва без проблем! Прегледах и тези които импортва и тези които не иска - не са защитени!
И единия и другия аудиофайл имат еднакви характеристики примерно
първия които импортва -
Audio
Format : MPEG Audio
Format version : Version 1
Format profile : Layer 3
Mode : Joint stereo
Mode extension : MS Stereo
Duration : 4mn 52s
Bit rate mode : Constant
Bit rate : 128 Kbps
Channel(s) : 2 channels
Sampling rate : 44.1 KHz
Stream size : 4.45 MiB (100%)

втория които не иска -
Audio
Format : MPEG Audio
Format version : Version 1
Format profile : Layer 3
Mode : Joint stereo
Duration : 6mn 48s
Bit rate mode : Constant
Bit rate : 192 Kbps
Channel(s) : 2 channels
Sampling rate : 44.1 KHz
Stream size : 9.35 MiB (100%)

А сега де!!! Когато не успее да импортне изписва: One or more files were not imported because there were problems reading them.
Е добре де, имало проблем, не искало да ги разчете.. ок! Всеки един скапан плеър отваря този уж проблемен файл само Флаша не ще... та не ще, а как ми трябва един специфичен файл тип епична музика за игра. Моля за помощ ако някой знае как и се е сблъсквал с този проблем.


Върнете се в началото
Offline   
 
 Заглавие: Re: Проблем с импорт на аудио файл в Адобе Флаш
МнениеПубликувано на: 24 Ное 2010, 16:59 
Старо куче - медалист
Аватар

Регистриран на: 18 Дек 2003, 16:01
Мнения: 867
Да няма някакви DRM неща по него?

_________________
The wise shall inherit glory: but shame will be the promotion of fools


Върнете се в началото
Offline   
 
 Заглавие: Re: Проблем с импорт на аудио файл в Адобе Флаш
МнениеПубликувано на: 29 Ное 2010, 12:48 
Срамежлив

Регистриран на: 30 Сеп 2010, 15:30
Мнения: 5
mmiv написа:
Да няма някакви DRM неща по него?


Извинявам се че отговарям толкова късно, не не е това! Разбрах какво е. Битрейта на аудио файла не трябва да е по висок от 160 kbps

"...Flash does not internally support MP3 files with a bitrate over 160kbps..."

Сложих ги при конверт с по-ниска стойност и се оправиха нещата.


Върнете се в началото
Offline   
 
Покажи мненията от миналия:  Сортирай по  
Напиши нова тема Отговори на тема  [ 3 мнения ] 

Часовете са според зоната UTC + 2 часа


Кой е на линия

Потребители разглеждащи този форум: 0 регистрирани и 1 госта


Вие не можете да пускате нови теми
Вие не можете да отговаряте на теми
Вие не можете да променяте собственото си мнение
Вие не можете да изтривате собствените си мнения
Вие не можете да прикачвате файл

Търсене:
Иди на:  
cron
Powered by phpBB © 2000, 2002, 2005, 2007 phpBB Group

Facebook 2011 By Damien Keitel Theme created StylerBB.net & kodeki
Преведено от: SEO блог на Йоан Арнаудов